Loading...
Error

Хасэкура Исуна - Spice and Wolf / Волчица и пряности - Книга 1 [Metalrus, 2013, Приключения, фэнтези, 128 kbps]

Ответить на тему

 | 

 
Автор Сообщение

Ivanson

Хасэкура Исуна
Волчица и пряности
Любит человек побеждать мать-природу. Даже крестьяне из очередного фэнтезийного захолустья предпочли новые посевные технологии надежде на богиню-волчицу по имени Холо, тысячи лет охранявшую их урожай. Совсем затосковала богиня, но древний договор отменить могли только люди, давно о нем позабывшие. И тут нежданно-негаданно ее освободил некто Лоуренс – парень видный, ловкий и сообразительный, ведь иными бродячие торговцы и не бывают. Приняв облик юной девушки (с очень милыми ушками и хвостом), богиня сделала Лоуренсу предложение, от которого он не смог отказаться – отвезти ее домой, на родной Север, посулив, что внакладе молодой купец не останется. Так и двинулись Холо и Лоуренс потихоньку на Север, но дорога их ждала дальняя и беспокойная. Аристократы и церковники, коммерсанты и полицейские, брошенные девушки и местные «братки» – всем есть дело до бедного купца и его странной спутницы. Волей-неволей путешественникам приходится рассматривать поступившие предложения, ведь у них обоих профессия такая – людям помогать!

Год: 2013
Автор: Хасэкура Исуна
Исполнитель: Metalrus
Жанр: Приключения, фэнтези
Издательство: Аудиокнига своими руками
Серия / Цикл: Spice and Wolf / Волчица и пряности
Номер в серии / цикле: Книга 1
Продолжительность: 06:15:30

Формат: m4b
Аудиокодек: AAC
Битрейт: 128 Kbps
Частота дискретизации: 44,1 kHz
Разбивка на части: нет
Разбивка на главы: есть
Вшитые обложки: есть
Музыкальное сопровождение: нет

Код:

Формат : MPEG-4
Профиль формата : Base Media / Version 2
Идентификатор кодека : mp42
Размер файла : 343 Мбайт
Продолжительность : 6 ч. 15 м.
Общий поток : 128 Кбит/сек
Название фильма : Волчица и пряности
Альбом : Волчица и пряности - Книга 1
Альбом/Сортировать по : Волчица и пряности - Книга 1
Альбом/Исполнитель : Исуна Хасэкура
Часть/Положение : 1
Часть/Всего : 17
Исполнитель : Исуна Хасэкура
Жанр : Фэнтези, романтика, приключения, сэйнэн
Тип содержимого : Audiobook
Дата записи : 2013
Дата кодирования : UTC 2014-01-11 09:26:10
Дата пометки : UTC 2016-03-08 19:56:49
Программа кодирования : Audiobook Builder 1.5.3, QuickTime 7.7.3
Обложка : Yes
Title/Sort : Волчица и пряности

Видео
Идентификатор : 2
Формат : PNG
Формат/Информация : Portable Network Graphic
Идентификатор кодека : png
Продолжительность : 6 ч. 15 м.
Битрейт : 100 бит/сек
Ширина : 331 пикселей
Высота : 396 пикселей
Соотношение сторон : 0,836
Режим частоты кадров : Постоянный
Частота кадров : 0,000 кадр/сек
Метод сжатия : Без потерь
Размер потока : 274 Кбайт (0%)
Язык : English
Дата кодирования : UTC 2014-01-11 09:27:14
Дата пометки : UTC 2014-01-11 09:27:14

Аудио
Идентификатор : 1
Формат : AAC
Формат/Информация : Advanced Audio Codec
Профиль формата : LC
Идентификатор кодека : 40
Продолжительность : 6 ч. 15 м.
Продолжительность оригинала : 6 ч. 15 м.
Вид битрейта : Постоянный
Битрейт : 128 Кбит/сек
Каналы : 2 канала
Расположение каналов : Front: L R
Частота : 44,1 КГц
Метод сжатия : С потерями
Размер потока : 337 Мбайт (98%)
Размер потока оригинала : 337 Мбайт (98%)
Язык : English
Дата кодирования : UTC 2014-01-11 09:26:04
Дата пометки : UTC 2016-03-08 19:56:49

Меню
Идентификатор : 3
Идентификатор кодека : text
Продолжительность : 6 ч. 15 м.
Язык : English
Дата кодирования : UTC 2014-01-11 09:27:14
Дата пометки : UTC 2014-01-11 09:27:14
00:00:00.000 : Предисловие
00:02:09.575 : Глава 1
01:18:01.505 : Глава 2
02:03:57.228 : Глава 3
02:57:29.358 : Глава 4
04:14:03.651 : Глава 5
05:10:08.040 : Глава 6
05:49:55.776 : Глава 7
06:11:20.728 : Глава 8
Вид битрейта : VBR
Download
Для скачивания .torrent файлов необходима регистрация
Сайт не распространяет и не хранит электронные версии произведений, а лишь предоставляет доступ к создаваемому пользователями каталогу ссылок на торрент-файлы, которые содержат только списки хеш-сумм

olle3

Ivanson
Продолжительность поправьте пожалуйста. ab

Ivanson

olle3
И куда я вечно тороплюсь?! Поправил.

stevgeniy

Спасибо !!!
Можно надеяться на продолжение?

Ivanson

stevgeniy
Только если народ скооперируется и заплатит Металрусу, ну или найдется другой декламатор

Ivanson

Переделал книгу - вырезал рекламные вставки. Торрент обновлен.
Показать сообщения:    
Ответить на тему