Loading...
Error

Rowling J.K. / Роулинг Джоан - Harry Potter: The Complete Story / Гарри Поттер: Полная история [Stephen Fry / Стивен Фрай, 2010, Fantasy / Фэнтези, 128 kbps, ENG]

Ответить на тему

 | 

 
Автор Сообщение

Ivanson

Rowling J.K. / Роулинг Джоан
Harry Potter: The Complete Story / Гарри Поттер: Полная история
Полное собрание аудиокниг «Гарри Поттера», которые озвучил Стивен Фрай, в действительно отличном качестве. Книги разбиты по главам.
Включает интервью с Джоан Роулинг, взятое Стивеном в 2005 году.

«Гарри Поттер» (англ. «Harry Potter») — серия из семи романов, написанных английской писательницей Дж. К. Роулинг. Книги представляют собой хронику приключений юного волшебника Гарри Поттера, а также его друзей Рона Уизли и Гермионы Грейнджер, обучающихся в Школе чародейства и волшебства Хогвартс. Основной сюжет посвящён противостоянию Гарри и тёмного волшебника по имени лорд Волан-де-Морт, в чьи цели входит обретение бессмертия и порабощение магического мира.

Год: 2010
Автор: Rowling J.K. / Роулинг Джоан
Исполнитель: Stephen Fry / Стивен Фрай
Жанр: Fantasy / Фэнтези
Язык: Английский
Издательство: Bloomsbury Publishing PLC
Серия / Цикл: Harry Potter: The Complete Story / Гарри Поттер: Полная история (Без сокращений)
Номер в серии / цикле: 1-7 (+ интервью с Джоан Роулинг, взятое Стивеном в 2005 году.)
Общая продолжительность: 125:07:43
Продолжительность 1 книги: 08:24:41
Продолжительность 2 книги: 09:42:16
Продолжительность 3 книги: 12:03:02
Продолжительность 4 книги: 20:55:40
Продолжительность 5 книги: 29:02:52
Продолжительность 6 книги: 20:31:16
Продолжительность 7 книги: 24:00:19
Продолжительность интервью: 00:27:37

Формат: m4b
Аудиокодек: AAC
Битрейт: 128 Kbps
Частота дискретизации: 44,1 kHz
Разбивка на части: есть
Разбивка на главы: есть
Вшитые обложки: есть
Музыкальное сопровождение: нет

Код:

Format : MPEG-4
Format profile : Base Media / Version 2
Codec ID : mp42
File size : 411 MiB
Duration : 8h 24mn
Overall bit rate mode : Constant
Overall bit rate : 114 Kbps
Album : Harry Potter - Book 1
Album/Performer : Rowling J.K.
Album/Performer/Sort : Rowling J.K.
Track name : Harry Potter and the Philosopher's Stone
Track name/Position : 1
Track name/Total : 1
Performer : Rowling J.K.
Composer : Stephen Fry
Genre : Fantasy
ContentType : Audiobook
Recorded date : 1997
Encoded date : UTC 2016-01-15 07:12:53
Tagged date : UTC 2016-01-15 10:32:38
Writing application : Audiobook Builder 1.5.3, QuickTime 7.7.3
Cover : Yes
Title/Sort : Harry Potter and the Philosopher's Stone
Composer/Sort : Stephen Fry

Audio
ID : 1
Format : AAC
Format/Info : Advanced Audio Codec
Format profile : LC
Codec ID : 40
Duration : 8h 24mn
Source duration : 8h 24mn
Bit rate mode : Constant
Bit rate : 112 Kbps
Nominal bit rate : 128 Kbps
Channel(s) : 2 channels
Channel positions : Front: L R
Sampling rate : 44.1 KHz
Compression mode : Lossy
Stream size : 404 MiB (98%)
Source stream size : 404 MiB (98%)
Language : English
Encoded date : UTC 2016-01-15 07:12:45
Tagged date : UTC 2016-01-15 10:32:38

Menu
ID : 2
Codec ID : text
Duration : 8h 24mn
Language : English
Encoded date : UTC 2016-01-15 07:13:30
Tagged date : UTC 2016-01-15 07:13:30
00:00:00.000 : The Boy Who Lived
00:31:52.920 : The Vanishing Glass
00:54:10.310 : The Letters From No One
01:19:34.501 : The Keeper of the Keys
01:44:08.695 : Diagon Alley
02:28:15.551 : The Journey From Platform Nine and Three-Quarters
03:06:27.428 : The Sorting Hat
03:36:07.436 : The Potions Master
03:55:00.313 : The Midnight Duel
04:25:47.718 : Hallowe'en
04:51:59.451 : Quidditch
05:12:14.928 : The Mirror of Erised
05:46:46.071 : Nicolas Flamel
06:07:05.518 : Norbert the Norwegian Ridgeback
06:28:30.768 : The Forbidden Forest
07:02:54.075 : Through the Trapdoor
07:46:05.525 : The Man with Two Faces
Bit rate mode : VBR

Код:

Format : MPEG-4
Format profile : Base Media / Version 2
Codec ID : mp42
File size : 471 MiB
Duration : 9h 42mn
Overall bit rate mode : Constant
Overall bit rate : 113 Kbps
Album : Harry Potter - Book 2
Album/Performer : Rowling J.K.
Album/Performer/Sort : Rowling J.K.
Track name : Harry Potter and the Chamber of Secret
Track name/Position : 1
Track name/Total : 1
Performer : Rowling J.K.
Composer : Stephen Fry
Genre : Fantasy
ContentType : Audiobook
Recorded date : UTC 1998-01-01 10:32:12
Encoded date : UTC 2016-01-15 07:29:42
Tagged date : UTC 2016-01-15 10:32:47
Writing application : Audiobook Builder 1.5.3, QuickTime 7.7.3
Cover : Yes
Title/Sort : Harry Potter and the Chamber of Secret
Composer/Sort : Stephen Fry

Audio
ID : 1
Format : AAC
Format/Info : Advanced Audio Codec
Format profile : LC
Codec ID : 40
Duration : 9h 42mn
Source duration : 9h 42mn
Bit rate mode : Constant
Bit rate : 111 Kbps
Nominal bit rate : 128 Kbps
Channel(s) : 2 channels
Channel positions : Front: L R
Sampling rate : 44.1 KHz
Compression mode : Lossy
Stream size : 463 MiB (98%)
Source stream size : 463 MiB (98%)
Language : English
Encoded date : UTC 2016-01-15 07:29:32
Tagged date : UTC 2016-01-15 10:32:47

Menu
ID : 2
Codec ID : text
Duration : 9h 42mn
Language : English
Encoded date : UTC 2016-01-15 07:30:23
Tagged date : UTC 2016-01-15 07:30:23
00:00:00.000 : The Worst Birthday
00:18:31.953 : Dobby's Warning
00:39:36.383 : The Burrow
01:08:40.473 : At Flourish and Blotts
01:48:10.561 : The Whomping Willow
02:24:37.661 : Gilderoy Lockhart
02:55:17.621 : Mudbloods And Murmurs
03:23:39.106 : The Deathday Party
03:53:14.780 : The Writing on the Wall
04:26:59.843 : The Rogue Bludger
05:00:16.980 : The Duelling Club
05:39:38.246 : The Polyjuice Potion
06:15:39.615 : The Very Secret Diary
06:52:17.688 : Cornelius Fudge
07:19:34.468 : Aragog
07:52:07.958 : The Chamber of Secrets
08:31:52.698 : The Heir of Slytherin
09:14:05.423 : Dobby's Reward
Bit rate mode : VBR

Код:

Format : MPEG-4
Format profile : Base Media / Version 2
Codec ID : mp42
File size : 590 MiB
Duration : 12h 3mn
Overall bit rate mode : Constant
Overall bit rate : 114 Kbps
Album : Harry Potter - Book 3
Album/Performer : Rowling J.K.
Album/Performer/Sort : Rowling J.K.
Track name : Harry Potter and the Prisoner of Azkaban
Track name/Position : 1
Track name/Total : 1
Performer : Rowling J.K.
Composer : Stephen Fry
Genre : Fantasy
ContentType : Audiobook
Recorded date : UTC 1999-01-01 10:51:39
Encoded date : UTC 2016-01-15 07:49:44
Tagged date : UTC 2016-01-15 10:52:20
Writing application : Audiobook Builder 1.5.3, QuickTime 7.7.3
Cover : Yes
Title/Sort : Harry Potter and the Prisoner of Azkaban
Composer/Sort : Stephen Fry

Audio
ID : 1
Format : AAC
Format/Info : Advanced Audio Codec
Format profile : LC
Codec ID : 40
Duration : 12h 3mn
Source duration : 12h 3mn
Bit rate mode : Constant
Bit rate : 112 Kbps
Nominal bit rate : 128 Kbps
Channel(s) : 2 channels
Channel positions : Front: L R
Sampling rate : 44.1 KHz
Compression mode : Lossy
Stream size : 580 MiB (98%)
Source stream size : 580 MiB (98%)
Language : English
Encoded date : UTC 2016-01-15 07:49:31
Tagged date : UTC 2016-01-15 10:52:20

Menu
ID : 2
Codec ID : text
Duration : 12h 3mn
Language : English
Encoded date : UTC 2016-01-15 07:50:44
Tagged date : UTC 2016-01-15 07:50:44
00:00:00.000 : Owl Post
00:25:46.840 : Aunt Marge's Big Mistake
00:52:45.046 : The Knight Bus
01:23:06.146 : The Leaky Cauldron
01:57:38.596 : The Dementor
02:43:26.913 : Talons and Tea Leaves
03:29:49.528 : The Boggart in the Wardrobe
04:00:19.508 : Flight of the Fat Lady
04:34:32.288 : Grim Defeat
05:09:26.968 : The Marauder's Map
05:55:13.690 : The Firebolt
06:31:14.350 : The Patronus
07:02:30.358 : Gryffindor versus Ravenclaw
07:29:12.601 : Snape's Grudge
08:04:12.350 : The Quidditch Final
08:41:34.490 : Professor Trelawney's Prediction
09:10:27.348 : Cat, Rat and Dog
09:39:44.028 : Moony, Wormtail, Padfoot and Prongs
09:54:58.470 : The Servant of Lord Voldemort
10:29:53.383 : The Dementors' Kiss
10:44:06.255 : Hermione's Secret
11:31:51.285 : Owl Post Again
Bit rate mode : VBR

Код:

Format : MPEG-4
Format profile : Base Media / Version 2
Codec ID : mp42
File size : 540 MiB
Duration : 10h 58mn
Overall bit rate mode : Constant
Overall bit rate : 115 Kbps
Album : Harry Potter - Book 4
Album/Performer : Rowling J.K.
Album/Performer/Sort : Rowling J.K.
Track name : Harry Potter and the Goblet of Fire, Part 1
Track name/Position : 1
Track name/Total : 2
Performer : Rowling J.K.
Composer : Stephen Fry
Genre : Fantasy
ContentType : Audiobook
Recorded date : UTC 2000-01-01 11:26:14
Encoded date : UTC 2016-01-15 08:09:48
Tagged date : UTC 2016-01-15 11:26:50
Writing application : Audiobook Builder 1.5.3, QuickTime 7.7.3
Cover : Yes
Title/Sort : Harry Potter and the Goblet of Fire, Part 1
Composer/Sort : Stephen Fry

Audio
ID : 1
Format : AAC
Format/Info : Advanced Audio Codec
Format profile : LC
Codec ID : 40
Duration : 10h 58mn
Source duration : 10h 58mn
Bit rate mode : Constant
Bit rate : 113 Kbps
Nominal bit rate : 128 Kbps
Channel(s) : 2 channels
Channel positions : Front: L R
Sampling rate : 44.1 KHz
Compression mode : Lossy
Stream size : 531 MiB (98%)
Source stream size : 531 MiB (98%)
Language : English
Encoded date : UTC 2016-01-15 08:09:37
Tagged date : UTC 2016-01-15 11:26:50

Menu
ID : 2
Codec ID : text
Duration : 10h 58mn
Language : English
Encoded date : UTC 2016-01-15 08:10:40
Tagged date : UTC 2016-01-15 08:10:40
00:00:00.000 : The Riddle House
00:29:04.168 : The Scar
00:47:45.238 : The Invitation
01:08:22.031 : Back To The Burrow
01:28:26.928 : Weasleys' Wizard Wheezes
01:51:54.091 : The Portkey
02:06:37.028 : Bagman And Crouch
02:40:22.718 : The Quidditch World Cup
03:19:47.191 : The Dark Mark
04:06:41.990 : Mayhem At The Ministry
04:27:36.440 : Aboard The Hogwarts Express
04:49:22.378 : The Triwizard Tournament
05:27:21.508 : Mad-Eye Moody
05:55:16.608 : The Unforgivable Curses
06:27:32.480 : Beauxbatons and Durmstrang
07:02:38.785 : The Goblet of Fire
07:43:38.421 : The Four Champions
08:12:20.228 : The Weighing of the Wands
08:56:41.946 : The Hungarian Horntail
09:37:08.826 : The First Task
10:23:33.505 : The House-Elf Liberation Front
Bit rate mode : VBR

Код:

Format : MPEG-4
Format profile : Base Media / Version 2
Codec ID : mp42
File size : 526 MiB
Duration : 10h 47mn
Overall bit rate mode : Constant
Overall bit rate : 114 Kbps
Album : Harry Potter - Book 5
Album/Performer : Rowling J.K.
Album/Performer/Sort : Rowling J.K.
Track name : Harry Potter and the Order of the Phoenix, Part 1
Track name/Position : 1
Track name/Total : 3
Performer : Rowling J.K.
Composer : Stephen Fry
Genre : Fantasy
ContentType : Audiobook
Recorded date : UTC 2003-01-01 12:06:27
Encoded date : UTC 2016-01-15 08:43:57
Tagged date : UTC 2016-01-15 12:40:01
Writing application : Audiobook Builder 1.5.3, QuickTime 7.7.3
Cover : Yes
Composer/Sort : Stephen Fry
Title/Sort : Harry Potter and the Order of the Phoenix, Part 1

Audio
ID : 1
Format : AAC
Format/Info : Advanced Audio Codec
Format profile : LC
Codec ID : 40
Duration : 10h 47mn
Source duration : 10h 47mn
Bit rate mode : Constant
Bit rate : 112 Kbps
Nominal bit rate : 128 Kbps
Channel(s) : 2 channels
Channel positions : Front: L R
Sampling rate : 44.1 KHz
Compression mode : Lossy
Stream size : 517 MiB (98%)
Source stream size : 517 MiB (98%)
Language : English
Encoded date : UTC 2016-01-15 08:43:46
Tagged date : UTC 2016-01-15 12:40:01

Menu
ID : 2
Codec ID : text
Duration : 10h 47mn
Language : English
Encoded date : UTC 2016-01-15 08:44:44
Tagged date : UTC 2016-01-15 08:44:44
00:00:00.000 : Dudley Demented
00:41:12.645 : A Peck of Owls
01:23:27.278 : The Advance Guard
01:58:15.350 : Number Twelve, Grimauld Place
02:33:52.766 : The Order of the Phoenix
03:08:30.440 : The Noble and Most Ancient House of Black
03:52:51.453 : The Ministry of Magic
04:23:54.403 : The Hearing
04:53:06.538 : The Woes of Mrs Weasley
05:47:18.373 : Luna Lovegood
06:27:21.036 : The Sorting Hat's New Song
07:09:09.496 : Professor Umbridge
08:07:14.100 : Detention with Dolores
09:05:01.068 : Percy and Padfoot
09:58:49.958 : The Hogwarts High Inquisitor
Bit rate mode : VBR

Код:

Format : MPEG-4
Format profile : Base Media / Version 2
Codec ID : mp42
File size : 530 MiB
Duration : 10h 51mn
Overall bit rate mode : Constant
Overall bit rate : 114 Kbps
Album : Harry Potter - Book 6
Album/Performer : Rowling J.K.
Album/Performer/Sort : Rowling J.K.
Track name : Harry Potter and the Half-Blood Prince, Part 1
Track name/Position : 1
Track name/Total : 2
Performer : Rowling J.K.
Composer : Stephen Fry
Genre : Fantasy
ContentType : Audiobook
Recorded date : UTC 2005-01-01 12:36:54
Encoded date : UTC 2016-01-15 09:23:19
Tagged date : UTC 2016-01-15 12:38:50
Writing application : Audiobook Builder 1.5.3, QuickTime 7.7.3
Cover : Yes
Composer/Sort : Stephen Fry
Title/Sort : Harry Potter and the Half-Blood Prince, Part 1

Audio
ID : 1
Format : AAC
Format/Info : Advanced Audio Codec
Format profile : LC
Codec ID : 40
Duration : 10h 51mn
Source duration : 10h 51mn
Bit rate mode : Constant
Bit rate : 112 Kbps
Nominal bit rate : 128 Kbps
Channel(s) : 2 channels
Channel positions : Front: L R
Sampling rate : 44.1 KHz
Compression mode : Lossy
Stream size : 521 MiB (98%)
Source stream size : 521 MiB (98%)
Language : English
Encoded date : UTC 2016-01-15 09:23:07
Tagged date : UTC 2016-01-15 12:38:50

Menu
ID : 2
Codec ID : text
Duration : 10h 51mn
Language : English
Encoded date : UTC 2016-01-15 09:24:07
Tagged date : UTC 2016-01-15 09:24:07
00:00:00.000 : The Other Minister
00:37:41.890 : Spinner's End
01:16:59.596 : Will and Won't
01:53:36.650 : Horace Slughorn
02:38:23.473 : An Excess of Phlegm
03:22:11.468 : Draco's Detour
04:03:52.351 : The Slug Club
04:48:37.736 : Snape Victorious
05:18:10.406 : The Half Blood Prince
06:00:16.653 : The House of Gaunt
06:44:31.443 : Hermione's Helping Hand
07:19:51.645 : Silver and Opals
07:57:45.708 : The Secret Riddle
08:38:21.548 : Felix Felicis
09:24:57.511 : The Unbreakable Vow
10:07:35.028 : A Very Frosty Christmas
Bit rate mode : VBR

Код:

Format : MPEG-4
Format profile : Base Media / Version 2
Codec ID : mp42
File size : 443 MiB
Duration : 8h 55mn
Overall bit rate mode : Constant
Overall bit rate : 116 Kbps
Album : Harry Potter - Book 7
Album/Performer : Rowling J.K.
Album/Performer/Sort : Rowling J.K.
Track name : Harry Potter and the Deathly Hallows, Part 1
Track name/Position : 1
Track name/Total : 3
Performer : Rowling J.K.
Composer : Stephen Fry
Genre : Fantasy
ContentType : Audiobook
Recorded date : UTC 2007-01-01 13:14:30
Encoded date : UTC 2016-01-15 09:54:57
Tagged date : UTC 2016-01-15 13:15:27
Writing application : Audiobook Builder 1.5.3, QuickTime 7.7.3
Cover : Yes
Composer/Sort : Stephen Fry
Title/Sort : Harry Potter and the Deathly Hallows, Part 1

Audio
ID : 1
Format : AAC
Format/Info : Advanced Audio Codec
Format profile : LC
Codec ID : 40
Duration : 8h 55mn
Source duration : 8h 55mn
Bit rate mode : Constant
Bit rate : 114 Kbps
Nominal bit rate : 128 Kbps
Channel(s) : 2 channels
Channel positions : Front: L R
Sampling rate : 44.1 KHz
Compression mode : Lossy
Stream size : 435 MiB (98%)
Source stream size : 435 MiB (98%)
Language : English
Encoded date : UTC 2016-01-15 09:54:48
Tagged date : UTC 2016-01-15 13:15:27

Menu
ID : 2
Codec ID : text
Duration : 8h 55mn
Language : English
Encoded date : UTC 2016-01-15 09:55:38
Tagged date : UTC 2016-01-15 09:55:38
00:00:00.000 : The Dark Lord Ascending
00:26:17.951 : In Memoriam
00:56:41.925 : The Dursleys Departing
01:21:41.875 : The Seven Potters
02:00:45.421 : Fallen Warrior
02:44:51.651 : The Ghoul in Pyjamas
03:31:30.540 : The Will of Albus Dumbledore
04:17:59.213 : The Wedding
05:03:06.125 : A Place to Hide
05:32:22.621 : Kreacher's Tale
06:21:12.300 : The Bribe
07:02:12.955 : Magic is Might
07:44:47.625 : The Muggle-Born Registration Commision
08:26:47.525 : The Thief
Bit rate mode : VBR
Download
Для скачивания .torrent файлов необходима регистрация
Сайт не распространяет и не хранит электронные версии произведений, а лишь предоставляет доступ к создаваемому пользователями каталогу ссылок на торрент-файлы, которые содержат только списки хеш-сумм

Шурик Мелкий

ну посмотрим сколько скачает на инглише

Ira75

Надеюсь, что много, потому что в переводе серия теряет очень... Спасибо

scrooge88

Благодарю за релиз!!! az az az
Показать сообщения:    
Ответить на тему