Loading...
Error

Стругацкие Аркадий и Борис - Понедельник начинается в субботу [Пирогов Кирилл, Глеб Подгородинский, Талызина Валентина и др., 2006, Научная фантастика, 192 kbps]

Ответить на тему

 | 

 
Автор Сообщение

Ivanson

Стругацкие Аркадий и Борис
Понедельник начинается в субботу
Повествование ведётся от лица Александра Привалова — ленинградского программиста, который во время отпуска поблизости от северного города Соловца подвозит автостопом двух сотрудников местного института. Они устраивают его переночевать в музей института — ИЗНАКУРНОЖ (Избушку на курьих ножках) на улице Лукоморье...

Год: 2006
Исполнитель: Пирогов Кирилл, Глеб Подгородинский, Талызина Валентина и др.
Жанр: Научная фантастика
Издательство: Радио КУЛЬТУРА
Продолжительность: 03:23:00

Формат: m4b
Аудиокодек: AAC
Битрейт: 192 Kbps
Частота дискретизации: 44,1 kHz
Разбивка на части: нет
Разбивка на главы: есть
Вшитые обложки: есть
Музыкальное сопровождение: есть

Код:

General
Complete name : /Volumes/External HDD/[Audiobooks]/Аркадий и Борис Стругацкие/Аркадий и Борис Стругацкие (2006) - Понедельник начинается в субботу.m4b
Format : MPEG-4
Format profile : Apple audio with iTunes info
Codec ID : M4A
File size : 284 MiB
Duration : 3h 23mn
Overall bit rate : 195 Kbps
Movie name : Понедельник начинается в субботу
Album : Понедельник начинается в субботу
Track name/Position : 1
Track name/Total : 1
Performer : Аркадий и Борис Стругацкие
Composer : Радио КУЛЬТУРА
Genre : Научная фантастика, комедия
ContentType : Audiobook
Description : Радиоспектакль по двум историям из повести братьев Стругацких «Понедельник начинается в субботу»: «Суета вокруг дивана» и «Всяческая суета». / Повествование ведётся от лица Александра Привалова — ленинградского программиста, который во время отпуска поблизо
Recorded date : 2006
Encoded date : UTC 2015-01-31 12:01:48
Tagged date : UTC 2015-01-31 15:04:41
Writing application : Audiobook Builder 1.5.3, QuickTime 7.7.3
Cover : Yes

Video
ID : 2
Format : PNG
Format/Info : Portable Network Graphic
Codec ID : png
Duration : 3h 23mn
Width : 512 pixels
Height : 512 pixels
Display aspect ratio : 1.000
Frame rate mode : Variable
Frame rate : 0.001 fps
Minimum frame rate : 0.001 fps
Maximum frame rate : 0.002 fps
Compression mode : Lossless
Language : English
Encoded date : UTC 2015-01-31 12:02:01
Tagged date : UTC 2015-01-31 12:02:03

Audio
ID : 1
Format : AAC
Format/Info : Advanced Audio Codec
Format profile : LC
Codec ID : 40
Duration : 3h 23mn
Source duration : 3h 23mn
Bit rate mode : Constant
Bit rate : 192 Kbps
Channel(s) : 2 channels
Channel positions : Front: L R
Sampling rate : 44.1 KHz
Compression mode : Lossy
Stream size : 273 MiB (96%)
Source stream size : 273 MiB (96%)
Language : English
Encoded date : UTC 2015-01-31 11:59:13
Tagged date : UTC 2015-01-31 15:04:41

Menu
ID : 3
Codec ID : text
Duration : 3h 23mn
Language : English
Encoded date : UTC 2015-01-31 12:02:03
Tagged date : UTC 2015-01-31 12:02:03
00:00:00.000 : История первая. Суета вокруг дивана
00:15:39.166 : Глава 2
00:32:22.006 : Глава 3
00:47:58.630 : Глава 4
00:54:59.565 : Глава 5
01:18:51.138 : Глава 6
01:36:35.970 : История вторая. Сеута сует
02:01:40.720 : Глава 2
02:23:13.815 : Глава 3
02:38:25.045 : Глава 4
03:01:25.931 : Глава 5
Bit rate mode : VBR

Код:

General
Complete name                            : /Users/ivanson/Downloads/Понедельник начинается в субботу/1_1.mp3
Format                                   : MPEG Audio
File size                                : 21.5 MiB
Duration                                 : 15mn 39s
Overall bit rate mode                    : Constant
Overall bit rate                         : 192 Kbps
Album                                    : Понедельник начинается в субботу
Track name                               : Глава 1
Track name/Position                      : 02
Track name/Total                         : 15
Performer                                : История 1. Суета вокруг дивана
Encoded by                               : ddfh, Glebka
Recorded date                            : 2006
Writing library                          : LAME3.98r
Cover                                    : Yes
Cover MIME                               : image/jpeg
Comment                                  : Радиоспектакль по повести братьев Стругацких. В ролях - К. Пирогов, В. Талызина, А. Филозов и др.

Audio
Format                                   : MPEG Audio
Format version                           : Version 1
Format profile                           : Layer 3
Mode                                     : Joint stereo
Mode extension                           : MS Stereo
Duration                                 : 15mn 39s
Bit rate mode                            : Constant
Bit rate                                 : 192 Kbps
Channel(s)                               : 2 channels
Sampling rate                            : 48.0 KHz
Compression mode                         : Lossy
Stream size                              : 21.5 MiB (100%)
Writing library                          : LAME3.98r
Encoding settings                        : -m j -V 4 -q 0 -lowpass 18.6 -b 192
Альтернатива
Download
Для скачивания .torrent файлов необходима регистрация
Сайт не распространяет и не хранит электронные версии произведений, а лишь предоставляет доступ к создаваемому пользователями каталогу ссылок на торрент-файлы, которые содержат только списки хеш-сумм

dussya32

Актёры читают великолепно!
Показать сообщения:    
Ответить на тему